300 Rise Of An Empire 2014 English Hindi Movies SCamRip x264...

  • Category

    Movies

    downloads 30784
  • type h.264/x264 last checked 5 months ago
  • language Hindi date uploaded 7 months 2 weeks ago
  • Total Size 705.12 MB seeders 254
  • Uploaded by

    nehalpuja *273

    leechers 46

Infohash:E68EA4FF54AE8144B572F53F74017693AE551C06 | Have magnet problems? Upgrade your torrent client!



300 Rise Of An Empire 2014 English Hindi Movies SCamRip x264 AC3 with Sample ~ ☻rDX☻

Screen Shots Gallary :



All rDX torrents are Seeding From the 1Gbps Seedbox 24X7

Format : Matroska
Format version : Version 4 / Version 2
File size : 697 MiB
Duration : 1h 18mn
Overall bit rate mode : Variable
Overall bit rate : 1 240 Kbps
Movie name : 300 Rise Of An Empire 2014 English Movies SCamRip x264 AC3 ~ rDX ~

Video
ID : 1
Format : AVC
Format/Info : Advanced Video Codec
Format profile : [email protected]
Format settings, CABAC : Yes
Format settings, ReFrames : 3 frames
Codec ID : V_MPEG4/ISO/AVC
Duration : 1h 18mn
Bit rate mode : Variable
Bit rate : 1 023 Kbps
Maximum bit rate : 40.0 Mbps
Width : 604 pixels
Height : 224 pixels
Display aspect ratio : 2.696
Frame rate mode : Constant
Frame rate : 25.000 fps
Color space : YUV
Chroma subsampling : 4:2:0
Bit depth : 8 bits
Scan type : Progressive
Bits/(Pixel*Frame) : 0.302
Stream size : 575 MiB (83%)
Title : ~ rDX ~
Writing library : x264
Default : Yes
Forced : No
Color primaries : BT.709
Transfer characteristics : BT.709
Matrix coefficients : BT.709

Audio
ID : 2
Format : AC-3
Format/Info : Audio Coding 3
Mode extension : CM (complete main)
Format settings, Endianness : Big
Codec ID : A_AC3
Duration : 1h 18mn
Bit rate mode : Constant
Bit rate : 192 Kbps
Channel(s) : 2 channels
Channel positions : Front: L R
Sampling rate : 48.0 KHz
Bit depth : 16 bits
Compression mode : Lossy
Stream size : 108 MiB (15%)
Title : ~ rDX ~
Language : Hindi
Default : Yes
Forced : No

Files

  • 300 Rise Of An Empire 2014 English Hindi Movies SCamRip x264 AC3 ~ ☻rDX☻.mkv (697.04 MB)
  • Sample ~ 300 Rise Of An Empire 2014 English Hindi Movies SCamRip x264 AC3 ~ ☻rDX☻.mkv (8.08 MB)
  • by Hayzer74*25

    thanks 4 effort.( a3-v3 )

tracker list

  • udp://tracker.publicbt.com:80/announce
  • udp://tracker.openbittorrent.com:80/announce
  • udp://tracker.istole.it:80/announce
  • http://fr33dom.h33t.com:3310/announce
  • udp://fr33dom.h33t.com:3310/announce
  • udp://11.rarbg.com:80/announce
  • udp://fr33domtracker.h33t.com:3310/announce
  • udp://9.rarbg.com:2710/announce
  • http://tracker.ex.ua/announce
  • udp://www.h33t.com:3310/announce